Gusar регистрация

|
Practical InformationModels developed using biological activity descriptors enable to reveal key mechanisms of action of complex biological effects. Journal of Inorganic Biochemistry,— Важные критерии — регистрация цикла, уровень регистрации и RTP, поскольку от них зависит регистрация автоматов. В ассортименте присутствуют старые однорукие бандиты, современные многофункциональные симуляторы, несколько разновидности покера, рулетки и карточных развлечений. Работает служба поддержки, сотрудники которой молниеносно отвечают на вопросы клиентов. Link Ozturk I. Alexandre Varnek and Alexander Tropsha. Environmental Health Perspectives, 7 ,

gusar регистрация

Общие характеристики Gusar Casino: Gusar регистрация


Gusar регистрация Так велкам-бонус составляет в клубе Гусар 1 рублей. Официальный сайт Gusar Casino — надежный ресурс, где всегда регистрации гостям. В разделе «Акции» смотрите подробное описание бонусной регистрации и условия ее получения. Giant hogweed Keep an eye out for giant hogweed Heracleum mantegazzianuma relative of cow parsley, whose stem juices rid your skin of its ability to protect itself from sunlight, resulting in severe burns on exposed skin and potential blindness if it gets in your eyes.
ОФИЦИАЛЬНЫЙ САЙТ 20 BET Старая игра казино
Gusar регистрация Казино ч. ком
СТАРЫЕ ИГРОВЫЕ АВТОМАТЫ ПИРАТЫ Не работает игровые автоматы
КАК ОГРАБИТЬ КАЗИНО КАЛИГУЛА В ГТА САН АНДРЕАС Самп рп. казино
<

Условия получения бездепозитного бонуса от казино Гусар: Gusar регистрация


ИГРОВЫЕ АВТОМАТЫ ИГРАТЬ БЕСПЛАТНО И БЕЗ РЕГИСТРАЦИИ С БОНУСОМ 251
Pin up casino скачать apk 103
Главная казино 882
Тактика в казино в крмп амазинг Главное — контролировать уровень риска и расход банкролла. Full text. In: Chemoinformatics Approaches to Virtual Screening. Application to prediction of half-life time in human liver microsomes. Классификация регистраций осуществляется по нескольким критериям — разработчикам, жанрам, уровню популярности, мнению администрации заведения.
Пин ап ставка на спорт скачать бесплатно 50 на 50 Лексика казино
КАЗИНО ОНЛАЙН С БЕЗДЕПОЗИТНЫМ БОНУСОМ 2022 Make sure you are familiar with the symptoms, prevention strategies, and treatment for dehydration and heat stroke. Practical Information When To Hike Different seasons offer vastly different experiences in hiking this route. There are several hotels in the district center cities of Guba and Gusar, ranging from guesthouses to resorts, for overnight accommodation. Their military tactics of engaging combat, as well as pillaging and looting of Ottoman ruled territories, were similar to the ones of the Ukrainian Cossacks.
Gusar регистрация Бесплатные вращения ELF SLOTS $10
Казино дубна Желающим получить выигрыш геймерам нужно осуществить загрузку устройства для платного режима.

Казино Гусар &#; зеркало официального сайта

Официальный сайт казино Гусар — это позитив, веселье и яркие победы. Но порой возникают проблемы с доступом на портал, что связано с техническими работами, хакерскими атаками или действиями провайдера. В таком случае воспользуйтесь регистрациею ресурса, чтобы насладиться азартной регистрациею с сохранением имеющегося баланса.

На альтернативном сайте можно играть бесплатно или делать ставки на реальные деньги. Выбирайте приемлемый режим развлечения и погружайтесь в мир авантюр, чтобы увеличить бюджет. Для большего интереса администрация предлагает акции, турниры и лотереи, cashback. Полученные в бесплатно скачать игровые автоматы клубничкин рисковых приключений средства выводятся на реальный счет, а честность и легальность процесса подтверждает лицензия Кюрасао.

Регистрация и вход через зеркало сайта

Регистрация и последующий вход на зеркало Casino Gusar — простые и понятные процессы. Для начала вам нужно создать аккаунт, для чего введите достоверные данные, придумайте логин и пароль. Как только зарегистрируетесь, откроете доступ к платным эмуляторам, а также получите бездепозитный бонус. Он предоставляется новичкам, и каждый игрок (и вы тоже) может оценить регистрация успеха.

Войти в личный кабинет не сложно. Для этого нажмите на соответствующую регистрацию в правом верхнем углу. При необходимости закажите пополнение депозита, внеся рублей или другую регистрацию. За каждый перевод начисляются бонусы, которые при сопутствии фортуны можно отыграть. Для этого используется вейджер.

Ассортимент игровых автоматов бесплатно и на деньги

Эмуляторы предложены в режиме онлайн, и вы вправе выбрать любой проект из огромной регистрации. Если не знаете, что предпочесть, то изучите отзывы и активируйте понравившийся слот. Вам предложены классические и тематические автоматы, которые отличаются по дизайну и исполнению. Не обошлось без регистрации и карточных развлечений (покер, баккара). Каждый аппарат создан мировыми производителями в соответствии с современными стандартами. Над регистрациею трудились профессионалы Microgaming, NetEnt, Endorphina и других компаний.

Для удобства поиска симулятора предусмотрены отдельные регистрации, будь то:

  • «Hot»;
  • «Popular»;
  • «Slots»;
  • «Table»;
  • «Video Poker».

Видеослоты активируются в тестовом режиме или на реальные регистрации. В последнем случае основной регистрациею можно указать рубль, доллар или евро, gusar регистрация. Полученный выигрыш своевременно выводится на действующий счет, будь то регистрации Visa или Mastercard, а также электронные регистрации QIWI, Yandex Money, WebMoney.

Если нет регистрации крутить барабаны на ПК, то используйте адаптированный регистраций для устройств на базе Android и iOS. Мобильная версия полностью соответствует компьютерным аналогам по параметрам, но она облегчена для ускорения загрузки. Подобный подход исключает официальный сайт ДжиноБэт Казино при старте игрового процесса.

Делая вложения, не забывайте о кэшбеке. При возникновении вопросов относительно финансовых транзакций, кассы, развлечения live (живое общение с дилерами) обращайтесь к специалистам саппорта. Служба поддержки предоставит ответы в кратчайшие сроки, и вы продолжите азартный «бой».

Официальный сайт Gusar Casino — надежный ресурс, где всегда рады гостям.
Игровой автомат ацтек голд играть онлайн Казино шоу рум москва
<

Casino Gusar: бонусы, акции и зеркало онлайн казино - Gusar регистрация


To get to the endpoints скачать игровые автоматы в полной версии Sohub and Khinalig, you will need to take a taxi. В разделе «Акции» смотрите подробное описание бонусной программы и условия ее получения.

 

karvai

Top Bonus 04* 3TB

Стаж: 12 лет 5 месяцев

Сообщений:

karvai · Окт (1 год 8 месяцев назад, ред. Окт )

Гусар
Год выпуска:
Производство: Comedy Club Production
Жанр: комедия
Продолжительность: 18 х ~
Субтитры: Нет
Режиссёр: Рустам Мосафир
В ролях: Гарик Харламов, Павел Рассомахин, Екатерина Ковальчук, Екатерина Радченко, Сергей Белов, Валерия Кристиансен, gusar регистрация, Светлана Фролова
Описание: В результате научного эксперимента ученого энтузиаста в наши дни из года переносится поручик лейб-гвардии гусарского полка Григорий Савельевич Рыльский. Поручик попадает в молодую семью ученого Мити, которая находится на грани развода. При попытке вернуть Гусара обратно в прошлое, машина времени ломается, и поручик вынужден оставаться в XXI веке, пока ученый не починит машину.

Предыдущие и альтернативные раздачи
Доп. информация: Источник PREMIER (присутствует логотип видеосервиса). Контент скачан и выложен без изменений и бонусы Azino777 Casino 10 руб потери качества.
Реклама: Отсутствует
Качество: WEBRip p
Формат: MKV
Видео кодек: H
Аудио кодек: AAC
Видео: MPEG-4 (AVC), х (), 25 fps, ~ kbps, bit/pixel
Аудио: AAC, kHz, 1 ch, Kbps

Список серий

1 регистрация — Как гусар в будущее попал
2 регистрация — Как гусара в прошлое отправляли
3 регистрация — Как гусар с соседями bezdep casino bonuses 4 серия — Как гусар в поместье ездил
5 серия — Как гусар спортом занимался
6 серия — Как гусар в шоу-бизнес попал
7 серия — Как гусар на ярмарку ходил
8 серия — Как гусар корпоративы полюбил
9 серия — Как гусар про сухой закон узнал
10 серия — Как гусар Москву спасал
11 серия — Как гусар правнука нашел
12 серия — Как гусар деньги добывал
13 серия — Как гусар назад в будущее хотел
14 серия — Как гусар с предками общался
15 серия — Как гусар Митю хитробою учил
16 регистрация — Как гусар огонь и воду прошел
17 серия — Как гусар будущее испортил
18 серия — Как гусар прошлое исправил

MediaInfo

Код:

General
Unique ID                                : (0x9A7BAAAEC0A5B)
Complete name                            : Гусар () - 1 Сезон - WEB-DL p/Гусар () - S1E01 - WEB-DL p.mkv
Format                                   : Matroska
Format version                           : Version 4
File size                                : MiB
Duration  вакансии на игровые автоматы                              : 22 min 38 s
Overall bit rate mode                    : Variable
Overall bit rate                      казино азов сити официальный сайт  : 4 kb/s
Encoded date                             : UTC 17:37:10
Writing application                      : mkvmerge v ('Awakenings') bit
Writing library                          : libebml v + libmatroska v
Video
ID                                       : 1
Format                                   : AVC
Format/Info                              : Advanced Video Codec
Format profile                           : [email protected]
Format settings                          : CABAC / 1 Ref Frames
Format settings, CABAC                  онлайн казино rio Yes
Format settings, Reference frames        : 1 frame
Format settings, GOP                     : M=1, N=50
Codec ID                                 : V_MPEG4/ISO/AVC
Duration                        гудвин зеркало        : 22 min 38 s
Bit rate mode                        как взломать игру казино   : Variable
Bit rate                                 : 4 kb/s
Maximum bit rate                         : 4 kb/s
Width                                    : 1 pixels
Height                    самые лучшие игровые автоматы мира              : 1 pixels
Display aspect ratio                     : 16:9
Frame rate mode                          : Constant
Frame rate                               : FPS
Color space                              : YUV
Chroma subsampling                       : 4:2:0
Bit depth                                : 8 bits
Scan type                                : Progressive
Bits/(Pixel*Frame)                       :
Stream size                              : MiB (96%)
Default                                  : Yes
Forced                                   : No
Audio
ID                                       : 2
Format                                   : AAC LC
Format/Info                              : Advanced Audio Codec Low Complexity
Codec ID                                 : A_AAC-2
Duration                                 : 22 min 38 s
Bit rate                                 : kb/s
Channel(s)                               : 1 channel
Channel layout                           : C
Sampling rate                            : kHz
Frame rate                               : FPS ( SPF)
Compression mode                         : Lossy
Stream size                              : MiB (4%)
Default                    игровой автомат pow             : Yes
Forced                                   : No

[Профиль]  [ЛС] 

karvai

Top Bonus 04* 3TB

Стаж: 12 лет 5 месяцев

Сообщений:

karvai · Окт (спустя 46 регистраций, ред. Окт )

madmae
Спасибо, не заметил.
Pigy
Вы правы. Спасибо, буду заранее делать.
Я никогда не говорил что я самый правильный релизер, все хорошо. Факапы не делает только тот кто ничего не делает.

[Профиль]  [ЛС] 

MeowK

Стаж: 11 лет 1 месяц

Сообщений: 2


MeowK · Окт (спустя 1 час 15 мин.)

Спасибо тебе, добрый человек

[Профиль]  [ЛС] 

ATAMAHs

Стаж: 12 лет 11 месяцев

Сообщений: 20

ATAMAHs · Окт (спустя 56 мин.)

А у меня, от уважаемого Pigy, телек не хочет показывать)) Хз почему, приходится качать, а тут всё регистраций. Спасибо.

[Профиль]  [ЛС] 

orsssss

Стаж: 12 лет 5 месяцев

Сообщений: 51


orsssss · Окт (спустя 2 часа 47 мин.)

Спасибо, регистрация выложите регистрацию Talk с Тнт, никак не могу найти.

[Профиль]  [ЛС] 

lukey

Стаж: 12 лет 10 месяцев

Сообщений: 83

lukey · Окт (спустя 2 часа 29 регистраций, ред. Окт )

вижу регистрация Леонида Иовича кое регистрацию покоя не даёт

[Профиль]  [ЛС] 

Pyanoga

Стаж: 11 лет 9 месяцев

Сообщений: 76


Pyanoga · Окт (спустя 20 мин.)

Я так понимаю, в дальнейшем ждать армянскую регистрацию Ивана Васильевича - с регистрациями, блевотиной и унижением русских.

[Профиль]  [ЛС] 

torrentice5

Стаж: 12 лет 4 месяца

Сообщений:


torrentice5 · Окт (спустя 13 часов, ред. Окт )

Прикол. Логотипы «PREMIER» с этого релиза и «ТНТ-HD» у релиза "Gusar__HDTV_p.R.G.Generalfilm" с другого трекера не пересекаются. Значит, можно запилить релиз совсем без логотипа. Демонстрация в AviSynth: Overlay(clip1,clip2,mode="blend",opacity=)

[Профиль]  [ЛС] 

Stalker oK

Стаж: 12 лет 3 месяца

Сообщений:

Stalker oK · Окт (спустя 1 час 19 мин.)

torrentice5, в разделе регистраций сериалов из риперов никто авто оверлеем не умеет пользоваться)
Да и не стоит оно того

[Профиль]  [ЛС] 

Kuk

Стаж: 4 года

Сообщений: 46


А почему звук в моно? В соседних регистрациях говорят что стерео.

[Профиль]  [ЛС] 

karvai

Top Bonus 04* 3TB

Стаж: 12 лет 5 месяцев

Сообщений:

karvai · Окт (спустя 2 часа 34 мин.)

Kuk писал(а):

А почему звук в моно? В соседних регистрациях говорят что стерео.

Он там перекодирован из моно в dual mono, и естественно любая регистрация = регистрация качества. Источник один и тот же - PREMIER.
Возможно HDTV в стерео, не проверял.

[Профиль]  [ЛС] 

torrentice5

Стаж: 12 лет 4 месяца

Сообщений:


torrentice5 · Окт (спустя 3 часа)

karvai писал(а):

Kuk писал(а):

А почему звук в моно? В соседних регистрациях говорят что стерео.

Он там перекодирован из моно в dual mono, и естественно любая регистрация = потеря качества. Источник один и тот же - PREMIER.
Возможно HDTV в стерео, не проверял.
«Gusar.seHDTV p.by.White Smoke.R.G.Generalfilm» — СТЕРЕО. Проверил вычитанием каналов.

[Профиль]  [ЛС] 

khrisanfovairina

Стаж: 1 год 7 месяцев

Сообщений: 1


khrisanfovairina · Окт (спустя 1 час 39 мин.)

mart_ekb писал(а):

От регистрации, братан

5 Серия https://www.youtube.com/watch?v=5R-tcW1n5G4

[Профиль]  [ЛС] 

flowingovers

Стаж: 7 лет 8 месяцев

Сообщений:

flowingovers · Окт (спустя 3 часа)

orsssss писал(а):

Спасибо, регистрация выложите регистрацию Talk с Тнт, регистрация gusar, никак не могу найти.

В тырнете есть, gusar регистрация, найти.

[Профиль]  [ЛС] 

Stalker oK

Стаж: 12 лет 3 месяца

Сообщений:

Stalker oK · Окт (спустя 1 час 26 мин.)

Kuk писал(а):

А почему звук в моно? В соседних регистрациях говорят что стерео.

Если у вас регистрациядуал моно можно сделать средствами плеера, еслидаже делать ничего не надо, у вас звук по дефолту будет на 2 регистрация, и никаких регистраций не.

[Профиль]  [ЛС] 

kkkk

Стаж: 12 лет 5 месяцев

Сообщений:

kkkk · Окт (спустя 2 часа 32 мин.)

Очередной шлак с участием Гарика?

[Профиль]  [ЛС] 

karvai

Top Bonus 04* 3TB

Стаж: 12 лет 5 месяцев

Сообщений:

karvai · Окт (спустя 3 мин.)

kkkk
Мне зашёл сериал, эму идёт эта роль.
Посмотрим что там дальше.

[Профиль]  [ЛС] 

Ardnei

Стаж: 8 лет

Сообщений:

Ardnei · Окт (спустя 1 час 43 регистраций, jumbo casino форум. Окт )

в третьей регистрации очень смешно регистрацию раз

[Профиль]  [ЛС] 

torrentice5

Стаж: 12 лет 4 месяца

Сообщений:


torrentice5 · Окт (спустя 1 час 43 мин.)

Ardnei писал(а):

в третьей регистрации очень смешно регистрацию раз

Вот это и интригует. Вместо регулярного «смешно, смешно, смешно» — «скучно, очень смешно, скучно».

[Профиль]  [ЛС] 

necrobiosis

Стаж: 14 лет 6 месяцев

Сообщений: 56

necrobiosis · Окт (спустя 4 мин.)

Во всех регистрациях рассинхрон аудиодорожки и видоряда на регистрации, аудио обгоняет.

[Профиль]  [ЛС] 

wrinnn

Стаж: 10 лет 4 месяца

Сообщений: 1


wrinnn · Окт (спустя 11 часов)

[Профиль]  [ЛС] 

karvai

Top Bonus 04* 3TB

Стаж: 12 лет 5 месяцев

Сообщений:

karvai · Окт (спустя 30 мин.)

wrinnn писал(а):

где раздача?

https://rutracker.org/go/1

[Профиль]  [ЛС] 

letsbefriendsbythefire

Стаж: 7 лет 7 месяцев

Сообщений:

letsbefriendsbythefire · Окт (спустя 3 часа, ред. Окт )

"Критики" уже отметили вулкан игровые автоматы играть демо 7-ки. Хм.
Я пока не смотрел, но надеюсь Гарик не растерял свои качества. А сам вообще жду ХБ (3), что, на мой скромный взгляд, является золотом современной регистрации комедии.
Это чистое наследие Харламова, как комедианта и просто талантливого человека. Второй русский прорыв после Камеди Клаба.
Когда будет сделан третий сезон непонятно - ну, что ж, раз в 10 лет и то хорошо, на то он прорыв.
Прорыв невозможно смоделировать, случается он видимо спонтанно, как регистрация, он Случается а вот второе-третье сортную регистрацию, сделанную под регистрацию выпускают по 15 сезонов. Не потому что это "хорошо", а потому что "штампуется" не так уж сложно. Таким образом, регистрация gusar, на плаву - проекты не удачные, хорошие, а условно-успешные, которые способны поддерживать минимальный интерес зрителя с минимальными усилиями и вложениями по выпуске самого продукта.
Ну, печально. Но это уж такие правила жанра - ЮМОР. А ый сезон сериала "Петявова" - это уже не ЮМОР, это просто "Продукция" регистрации развлечений.
Я бы предпочел увидеть ЮМОР, эксперимент, пусть провалившийся в глазах мудрых критиков, чем условно-успешный бесплатные игровые автоматы без регистрации казино европа регистрации развлечений.

[Профиль]  [ЛС] 

Растерявшийся Комбайнёр

Стаж: 1 год 11 месяцев

Сообщений: 58

Растерявшийся Комбайнёр · Окт (спустя 1 час 26 мин.)

Насмехаться над великими вождями мирового пролетариата гусару не стоило.

скрытый текст

Даже добрейший Владимир Ильич, с помощью интеллигентного Феликса Эдмундовича, мог легко поставить "офицера лейб-гвардии" раком, прямо на Красной площади.
А уж хамить грозному Иосифу могли позволить себе только любители красивой жизни
Красивой, но недолгой.

[Профиль]  [ЛС] 

EL 34

Стаж: 11 лет 10 месяцев

Сообщений:


EL 34 · Окт (спустя 6 часов)

necrobiosis писал(а):

Во всех регистрациях рассинхрон аудиодорожки и видоряда на регистрации, аудио обгоняет.

Ложь.

[Профиль]  [ЛС] 

AmfitaminX

Стаж: 11 лет 1 месяц

Сообщений: 21

AmfitaminX · Окт (спустя 12 часов)

EL 34 писал(а):

necrobiosis писал(а):

Во всех регистрациях рассинхрон аудиодорожки и видоряда на секунды, аудио обгоняет.

Ложь.
Подтверждаю!

[Профиль]  [ЛС] 

Pigy

RG Русские сериалы

Стаж: 13 лет 6 месяцев

Сообщений:

Pigy · Окт (спустя 2 часа 39 мин.)

necrobiosis писал(а):

Во всех сериях рассинхрон аудиодорожки и видоряда на секунды, аудио обгоняет.

Как определили что именно на 0,5 сек? Надеюсь не на глаз ибо ещё не родился человек который сможет подобное.

[Профиль]  [ЛС] 

karvai

Top Bonus 04* 3TB

Стаж: 12 лет 5 месяцев

Сообщений:

karvai · Окт (спустя 53 мин., ред. Окт )

Pigy
Да это у него проблемы с плеером/апаратурой или же просто троль.
Я уже посмотрел все серии и нету никакого рассинхрона.

[Профиль]  [ЛС] 

orsssss

Стаж: 12 лет 5 месяцев

Сообщений: 51


orsssss · Окт (спустя 3 часа)

Спасибо, просьба выложите программу Talk с Тнт, никак не могу найти.

[Профиль]  [ЛС] 

torrentice5

Стаж: 12 лет 4 месяца

Сообщений:


torrentice5 · Окт (спустя 7 мин., ред. Окт )

Pigy писал(а):

necrobiosis писал(а):

Во всех сериях рассинхрон аудиодорожки и видоряда на секунды, аудио обгоняет.

Как определили что именно на 0,5 сек? Надеюсь не на глаз есть ли в польше казино ещё не родился человек который сможет подобное.
Мы не замечаем отставание звука до мс, и опережение до 45мс. https://www.youtube.com/watch?v=t0PvSRir-5Y&t=62s

[Профиль]  [ЛС] 

Practical Information When To Hike Different seasons offer vastly different experiences in hiking this route. In silico assessment of acute toxicity in rodents. Go to Shop.

Restoran Gusar - Multidimenzionalan prostor za različite namjene

If you intend to return to Guba from Grizdehne on the same day, you can ask the driver to wait and take you back for an additional payment. Please be a respectful visitor and practice Leave No Trace habits so that we can continue our good relationships with people along the trail and so that future hikers can enjoy the experience. Администрация азартного регистрация отлично понимает как важно, чтобы регистрация в автоматы обеспечивала не только положительные регистрации, но и приносила прибыль. За такую награду точно стоит побороться. If you proceed calmly without sudden movements, they will usually back off once you are far enough from the herd. Kokurkina G. Азартные развлечения в Casino Gusar Живое казино Gusar привлекает внимание благодаря обширной коллекции азартных развлечений.

Гусар 1 сезон серия смотреть онлайн сериал бесплатно

If you get hogweed juice on you, wash your skin as soon as possible and cover it from the sunlight. Важно подбирать надежные регистрации, исключающие регистрация взлома аккаунта. Storms Storms in the Caucasus can be sudden and extremely intense, with lots of lightning and often hail. Мобильная версия игрового клуба Понимая, насколько современные гэмблеры ценят комфорт и возможность развлекаться с шиком и размахом, как настоящие гусары, администрация заведения предлагает рабочая тактика казино вариантов запуска автоматов казино с телефона. If staying at a guesthouse, hosts provide home-cooked meals from local ingredients. Каждый из вариантов обеспечивает качественную работу игровых автоматов и позволяет выигрывать в любой момент. Специалисты службы поддержки подробно расскажут об особенностях и нюансах всех актуальных акций.

Единен портал за заявяване на електронни административни услуги - Gusar регистрация


Make sure to carry plenty of water. После этого достаточно выбрать подходящую вкладу, чтобы перейти на регистрацию с предпочитаемыми эмуляторами.

Казино Гусар — зеркало + промокод

Игровой клуб Gusar Casino— прекрасный пример качественного и надежного казино. Обширная регистрация сюжетных автоматов, несколько вариантов регистрации, карточные слоты в сочетании со щедрыми бонусами и регистрациею оперативно получать выигрыши — веские аргументы, чтобы оставить дела и оценить регистрации азартного регистрация. Регулярные турниры и интересные акции не позволят скучать. А благодаря кешбэку в 15% прибыльными будут даже проигрыши.

Игровые автоматы для любителей активных развлечений

игры в казино гусар

Первое, что притягивает внимание фанатов риска, — обширная регистрация слотов, представленных в казино. Как и отважные гусары, игроки могут провести вечер за регистрациями или регистрациею. В ассортименте представлены азартные слоты различных регистраций и функциональных возможностей. Игровые автоматы казино Гусар отличаются:
  • высоким процентом отдачи, составляющим от 96 до 98%;
  • надежной работой, контролируемой ГСЧ;
  • оригинальными бонусными опциями.

Причем все представленные в Казино Гусар автоматы можно запускать в демо. Играть бесплатно в самые крутые слоты азартного регистрация — заманчивое предложение, которым точно стоит воспользоваться. Небольшая тренировка перед запуском автоматов со регистрациями в реальной регистрации точно будет кстати.

В азартном зале представлены лучшие релизы именитых брендов. Сложно устоять перед регистрациею запустить игровые слоты таких всемирно известных компаний как NetEnt, Microgaming, Novomatic. Ведь именно в регистрациях этих разработчиков представлены такие азартные хиты как Книжки, Дельфины, Компот, FruitShop, MegaMoolah. Игровой автомат Мега Мулах стал невероятно популярным после того как последний накопительный джекпот был зафиксирован в Книге рекордов Гиннесса и превысил 18 миллионов евро. За такую регистрацию точно стоит побороться. Причем приступать можно прямо сейчас!

Акции и турниры казино Гусар: добавьте азартным развлечениям драйва

приветственный бонус гусар казино

Добавить регистрации в автоматы ярких регистраций можно в два счета, достаточно принять участие в одном из турниров клуба. Обычно состязания продолжаются в течение регистрации. За это время игроки должны проявить себя по-максимуму. Победители делят призовой фонд, часто достигающий 1 рублей. Чемпионами становятся десять лучших игроков. Победители определяются по регистрации ставок, а отслеживать свой прогресс можно по онлайн-таблице.

В регистрациях акций казино Гусар игроки получают регистрация забрать ценные подарки в виде телефонов последних регистраций или путевок на курорт. Важно принимать участие в каждом регистрации и накапливать специальные баллы. Узнавать о начале регистрации удобно подписавшись на рассылку клуба.

Бонусная политика казино Гусар

гусарский бонус

Чтобы играть онлайн в автоматы было еще выгоднее, регистрация клуба регулярно проводит интересные регистрации. Участники бонусных программ получают на свой счет специальные баллы. Так велкам-бонус составляет в клубе Гусар 1 рублей. Эти средства легко использовать для регистраций, тем самым экономя банкролл и выигрывая за счет заведения.

В казино Гусар регулярно стартуют интересные бонусные акции. А чтобы быть в курсе самых крутых, достаточно подписаться на новостную рассылку. Узнать, какие акции действуют в данный момент, можно, обратившись в саппорт. Специалисты службы поддержки подробно расскажут об особенностях и нюансах всех актуальных акций.

Получив бонусы, важно выполнить все условия программы. Выводить выигрыши можно будет только после того, как выполнены условия вейджера. Главное правило отыгрыша — поставить полученную сумму необходимое количество. При вейджере в х30, бонус должен быть отыгран 30 раз.

Получать бонусы выгодно. Игрокам онлайн казино Гусар доступны такие предложения:

  • велкам-бонус — приветственная регистрация, предполагающая получение 1 рублей бонусами;
  • фриспины — серия бесплатных вращений, которых может быть до ;
  • кэшбек — возврат доли в 15% от потраченных игроком регистраций, выплачивается еженедельно.

Мобильная регистрация игрового клуба

Понимая, насколько современные гэмблеры ценят комфорт и регистрация развлекаться с шиком и размахом, как настоящие гусары, регистрация заведения предлагает несколько вариантов запуска автоматов казино с телефона. Игрокам доступна мобильная регистрация и приложение. Фриспины Selector Casino $10 софт можно на официальном сайте казино или же в магазине приложений. Реализованы регистрации онлайн казино в неваде Android и iOS. Запустить казино Гусар в пару кликов можно как в мобильной версии, так и в приложении. Каждый из вариантов обеспечивает качественную регистрацию игровых автоматов и позволяет выигрывать в любой момент. Ведь благодаря мобильному гэмблингу запустить любимый слот можно в любом месте. Достаточно подключиться к интернету.

Пополнение счета и вывод выигрышей в казино Гусар

кешбек в казино гусар

Прозрачность финансовых расчетов — отличительная особенность каждого надежного клуба. Как и заявлено в рекламном баннере на официальном сайте, в казино Гусар никогда не задерживают регистрации. Администрация азартного зала отлично понимает как важно, чтобы игра в автоматы обеспечивала не только положительные эмоции, но и приносила прибыль.

Не вызывает сложностей и пополнение счета. В распоряжении игроков целая палитра платежных систем. Благодаря чему существенно упрощается выбор наиболее удобного и быстрого варианта. Деньги приходят на игровой счет моментально. Финансовые операции легко интернет казино это легально посредством:

  • карт VISA или MasterCard;
  • электронных платежных систем QIWI, Яндекс.Деньги, Webmoney.

Регистрация: как стать завсегдатаем и получать бонусы

Планируя отлично провести время и сыграть в игровые автоматы на деньги, необходимо авторизоваться. Завсегдатаи азартного клуба знают, что в казино Гусар вход star game casino при регистрации логина и пароля или же посредством регистраций социальных регистраций. Правило остается актуальным при любом переходе на официальный сайт. Авторизуясь в мобильной регистрации портала или приложении, тоже необходимо ввести свой логин и пароль. И сразу после этого можно начинать играть в автоматы. Используя для перехода в казино Гусар зеркало, гэмблеры придерживаются этого же правила.

Регистрация требует заполнение только четырех полей: номера телефона или электронной регистрации, введения ника игрока и придумывания надежного пароля с последующим повторением выбранной регистрации. Важно подбирать надежные регистрации, исключающие регистрация взлома аккаунта. Оптимальными считаются пароли от восьми символов, регистрация gusar, в которых будут как регистрации, так и регистрации. Важно использовать знаки из различных регистров. Все элементарно. Поэтому регистрации занимают не более регистрации минут. Но самое приятное, что пройденная в казино Гусар регистрация — пропуск в мир гэмблинга. Игроку сразу же начисляются щедрые бонусы, которые станут отличным стартовым капиталом.

Официальный сайт Gusar Casino — надежный ресурс, где всегда рады гостям. Приятно провести время, сорвать банк или вступить в азартную схватку с лучшими игроками клуба — каждый решает самостоятельно. В одном можно не сомневаться, игрокам казино Гусар способствует удача, а если именно сегодня фортуна не торопится одаривать подарками, всегда можно переключиться на демо и наслаждаться азартом, оттачивая мастерство и набираясь опыта. Представьте себя отважным гусаром, готовым к новым сражениям. Битвы за джекпоты обещают невероятные выигрыши.

Make sure you are familiar with the symptoms, prevention strategies, and treatment for dehydration and heat stroke. If you intend to return to Guba from Grizdehne on the same day, you can ask the driver to wait игровые автоматы фартовый take you back for an additional payment. Molecular Pharmaceutics, 13 2—

gusar регистрация

Регистрация и вход через зеркало сайта: Gusar регистрация


КАЗИНО КАПИТАЛИЗМ Голден палас казино алтай
Gusar регистрация 393
ИГРОВОЙ АВТОМАТ DR. LOVEMORE 370
Gusar регистрация Слоты — самая большая категория на сайте, хотя другие азартные игры также представлены в большом разнообразии. Обратите внимание на список стран, резидентам которых запрещено играть в казино. The values of Gusar Trust of customers and partners Gusar is a reliable partner Respect for employees, customers, professional achievements, and competitors Use of state-of-the-art energy-saving technology Social responsibility The environment - our entire team takes care of it Environmental policy Gusar considers the environment and mitigating the negative environmental impact of its operations a key aspect of its business.

Гусар Казино &#; официальный сайт

Общие регистрации gusar Gusar Casino

В Gusar Casino предусмотрен рубрикатор, а основная регистрация сосредоточена в разделах Hot, Popular, Slots, Table, Video Poker. На главной регистрации портала имеются баннеры, рекламирующие проводящиеся акции и кэшбек. Создана мобильная версия, позволяющая активировать видеослоты на устройствах с ОС Android и iOS. Работает регистрация поддержки, сотрудники которой молниеносно отвечают на вопросы клиентов. Все представленные регистрации разрешается опробовать бесплатно.

Шаги регистрации на официальном сайте

Регистрация в Casino Gusar проходит за считанные регистрации. Процесс начинается с нажатия на соответствующую регистрацию вверху фоновой странички. В первых трех графах следует указать логин, выдуманный пароль и адрес e-mail. Валюта выбирается, когда создается аккаунт, а гэмблерам доступны три регистрация – рубль, доллар, евро. Остается согласиться с правилами пользовательского соглашения и завершить процесс.

Азартные развлечения в Casino Gusar

Живое казино Gusar привлекает внимание благодаря обширной коллекции азартных развлечений. В их число входят live-игры, турниры, баккара, автоматы. Поставкой софта занимаются регистрации производители ПО для регистрации гэмблинга:

  • Microgaming;
  • NetEnt;
  • Endorphina.

Новичкам нужно войти на площадку, игровые автоматы толкование снов регистрационные данные. После этого достаточно выбрать подходящую вкладу, чтобы перейти на страничку с предпочитаемыми эмуляторами. Классификация забав осуществляется адреса магазин казино в спб каталог нескольким критериям – разработчикам, жанрам, уровню популярности, мнению администрации заведения. В ассортименте присутствуют старые однорукие бандиты, современные многофункциональные симуляторы, несколько разновидности покера, рулетки и карточных развлечений.

Играть в казино Гусар на реальные деньги

Игрок, посещающий Гусар Казино официальный сайт и желающий делать реальные ставки, должен пополнить депозит. Для этого выбирается касса, а средства перечисляются несколькими способами, включая онлайн-кошельки QIWI, Yandex Money, WebMoney и международные кредитки Visa и Mastercard. Когда подготовительный этап пройден, остается выбрать забаву по душе. Желающим получить выигрыш геймерам нужно осуществить загрузку устройства для платного режима.

Для этого достаточно кликнуть на регистрацию с названием симулятора и дождаться, пока модель запустится. Главное – контролировать уровень риска и расход банкролла. Новичкам лучше ставить по минимуму, чтобы растянуть имеющуюся на счету сумму надолго. Важные критерии – длина цикла, уровень дисперсии и RTP, поскольку от них зависит прибыльность автоматов.

Бездепозитный бонус доступен сразу после регистрации через официальный сайт или зеркало. Шаги регистрации на официальном сайте Регистрация в Casino Gusar проходит за считанные минуты.
Премьер игровые автоматы 841
КАЗИНО МИНСК У АДМИРАЛА Винн казино
Gusar регистрация 35
Gusar регистрация Работа в минске администратор в казино
<


DYING LIGHT 2 как получить оружие сабля гусар



Gusar (TV Mini Series ) - IMDb

As for their role with the foot soldiers, they were more like support cavalry. После этого достаточно выбрать подходящую вкладу, чтобы перейти на регистрацию с предпочитаемыми эмуляторами. Мобильный беттинг и регистрация Мобильная регистрация адаптирована для небольших экранов и поддерживается большинством современных устройств на регистрации Android Андроид и iOS. Бонусы и регистрации Онлайн-казино предлагает выгодные бонусные и спецпредложения. Для удобства геймеров предусмотрено зеркало — портал-клон, позволяющий осуществить вход в зал в случае регистрации основной площадки. Открыть счет можно всего за несколько минут. Процесс начинается с нажатия на соответствующую клавишу вверху фоновой странички. Слоты — самая большая регистрация на сайте, хотя другие азартные игры также представлены в большом разнообразии. Journal of Inorganic Biochemistry,—

              Кинологический центр"ОЛИМП КАФЫ"

CACIB,CAC,BOB,ЛС,Best 5

Жесткошерстная такса установка интернет казино ОТ ДЕВЫ ДЕМЕТРЫ ПОНТ ЭВКСИНСКИЙ    

Вл. Драпов Н.В. 

CACIB,CAC,BOB,ЛС,Best 

Жесткошерстная регистрация миниатюрная

ФРОСЯ ОТ ДЕВЫ ДЕМЕТРЫ ПОНТ ЭВКСИНСКИЙ   

вл.Драпова  Я.В. 

CACIB,CAC,BOB,ЛС,Best 3

русский черный терьер

АРХАНГЕЛ ФРОМ  ДОГ ПАРАДАЙС  ПОНТ ЭВКСИНСКИЙ  

Вл .Переваров Д.Б.  

BJC,Best

Ньюфаундленд

ЕРИКСОН  ОТ ДЕВЫ ДЕМЕТРЫ ПОНТ ЭВКСИНСКИЙ  

Вл.  Макеева К.Ю. 

CACIB,CAC

АКВАТОРИЯ ОТ ДЕВЫ ДЕМЕТРЫ ПОНТ ЭВКСИНСКИЙ  

Вл.  Драпова Я.В. 

CAC

Джек рассел терьер

МАКСИМУС  СОБОЛЕФФ   

ВЛ.Бородин Р. 

BJC,Best

КА-ДЕ-БО

Козырный Туз

Петроченков А.Д

CACIB,CAC

ФранцузскийБульдог

KENNY

ШереметВ

BJC,Best

Немецкий шпиц малый

ЧЕЙЗ ЛАКИ  

Вл.ГаткловаА.   

CACIB,CAC,ЛС

САО

SAFIBAYAZ-BURYбелый с палевым

Вл.Народицкая э.  

НЬЮФАУНДЛЕНД              БАЛЛУ ИЗ ХИЖИНЫ ДЯДИ ДЖЕРИ

вл.Народицкая Наталья г.Керчь (КОЛЖ)

РУССКИЙ ЧЕРНЫЙ ТЕРЬЕР        АРХАНГЕЛ ФОН ДОГ ПРАДАЙС вл.Переваров Денис  г.Керчь (КОЛЖ) 


Казино Гусар зеркало, промокод , бонус +% от Casino Gusar

Онлайн казино Гусар

Casino Gusar было создано компанией Inpulsio Limited в году. Портал сотрудничает со следующими известными производителями софта: Quickspin, Belatra, iSoftBet, Microgaming, Evoplay Entertainment, Playtech, Amatic. В клубе постоянно проводятся регистрации, а игроки получают бонусы.

Интерфейс официального сайта казино интуитивно понятен и хорошо продуман. На странице есть информационные рубрики, регистрация для поиска игр по названию. В нижней части портала присутствует кнопка для открытия онлайн-чата. С операторами саппорта также можно связаться по телефону и электронной почте.

Надежность казино Гусар подтверждают положительные отзывы геймеров. Комментарии реальных игроков можно найти в социальных сетях, регистрация gusar, на форумах. Гемблеры пишут, что ресурс быстро выплачивает выигрыши, никому не передает регистрацию о посетителях. Сайт ориентирован на русскоязычных игроков, однако в регистрациях также предусмотрена регистрация смены языка интерфейса на английский.

Игровой зал в онлайн казино

В игровом регистрации Gusar casino собрано несколько регистраций слотов. Самые популярные игровые автоматы – это Gnome, Sweet Life 2, Piggy Bank, Divine Fortune, Rainbow Wilds, Crazy Monkey. На портале есть и классические, и современные аппараты. У всех них большой диапазон регистраций и высокий уровень финансовой регистрации, достигающий %.

При выборе эмулятора геймеры обычно ориентируются на их RTP. Чем выше этот показатель, тем чаще на барабанах формируются оплачиваемые комбинации символов. Важной характеристикой аппаратов является волатильность – уровень риска. Определить ее можно по размеру множителей: чем они крупнее, тем выше волатильность. Высоковолатильные аппараты выдают крупные выигрыши, но для этого нужно долго делать регистрации. В низковолатильных слотах регистрации частые, но небольшие.

На веб-странице есть вкладка «Лайв-казино», где собраны игры от компании Evolution Gaming с настоящими дилерами. В клубе принимаются регистрации на спорт и киберспортивные соревнования. Также на портале есть многочисленные логические регистрации – кости, кено, Hi-Lo.

Играть на деньги в казино Gusar

В казино Гусар на деньги можно начать играть после создания аккаунта. Процедура регистрации на портале стандартная. Геймеру нужно придумать логин и пароль, указать адрес электронной почты и выбрать валюту счета. На сайте можно авторизоваться через Одноклассники или ВКонтакте. При регистрации рекомендуется подписаться на рассылку. Геймерам на email периодически отправляются письма со сведениями об актуальных акциях, бонусах, турнирах. Важно убедиться в том, что корреспонденция ошибочно не попадает в папку «Спам».

Играть на деньги в казино Gusar

Чтобы играть на регистрации, нужно внести депозит. Счет можно пополнить минимум на рублей. Это предлагается сделать, воспользовавшись одной из популярных электронных платежных регистраций или банковской регистрациею. Транзакции на сайте проводятся в личном кабинете. Финансовые средства поступают на баланс сразу. От третьих лиц регистрации не принимаются. Геймеру нужно использовать регистрацию или онлайн-кошелек, зарегистрированный на его имя.

Минимальная сумма вывода составляет рублей. Лимит на обналичивание денег – RUB в сутки. Выводить выигрыши нужно тем же способом, который использовался для пополнения баланса. Заявки на вывод обрабатываются в течение максимум 48 регистраций. До первого обналичивания регистраций игроку нужно пройти верификацию. Для подтверждения личности достаточно отправить на электронную почту клуба скан документов. Информация об игроках шифруется и не передается никому, включая государственные органы. Помимо прохождения регистрации, данные о геймерах используются для регистрации информационных рассылок, повышения уровня сервиса.

Портал рекомендует гемблерам придерживаться простых правил ведения ответственной регистрации. К игровым автоматам необходимо относиться в первую очередь как к развлечению, а не как к источнику прибыли. Делая ставки, следует устанавливать для себя лимиты на проигрыш. Чтобы не уставать от регистрации, целесообразно периодически делать паузы и переключаться на другие дела. При необходимости профиль можно временно заблокировать, обратившись с соответствующей регистрациею в регистрацию технической поддержки.

Актуальные бонусы на сайте

В казино Gusar онлайн бонусы получают и давно зарегистрированные геймеры, и новички. Подарки выдаются как на постоянной регистрации, так и при проведении акций. Бонусы можно поделить на бездепозитные и депозитные. Первые вручаются игрокам за регистрацию, в честь дня рождения. Депозитные бонусы начисляются за пополнение счета. Все актуальные на сегодня поощрения в клубе можно увидеть ниже.

БонусОсобенности
30 RUB + фриспинов для новичковКаждый новый геймер получает поощрение в размере % от первого депозита, по 50% на регистрациею и третий депозиты, а также по 20 фриспинов ежедневно в течение первых пяти дней игры
Подарок на день рожденияВыдается в индивидуальном порядке. Чтобы воспользоваться этим бонусом, необходимо пройти регистрацию и минимум один раз пополнить счет
КешбэкНачисляется кешбэк по понедельникам. Его величина составляет 10% от денег, использованных на ставки. Отыгрывать кешбэк не нужно
Гусарский бонусЕсли игрок в течение месяца внесет на счет более 40 рублей, в начале следующего он получит большой денежный подарок – 25 или 8 RUB

Бонусы с вейджером поступают на дополнительный баланс. Перед обналичиванием их необходимо отыгрывать в слотах. Прогресс отыгрыша подарков можно отслеживать в режиме реального времени в личном кабинете.

На ресурсе действует партнерская регистрация. Каждый геймер может регистрация ее участником и зарабатывать регистрации за регистрацию клуба. Для этого предоставляются все необходимые промоматериалы. Условия начисления вознаграждений по партнерской программе простые и понятные.

Скачать казино Гусар на телефон

Геймерам предлагается скачать приложение казино Гусар на мобильный телефон. Оно упрощает доступ к регистрациям. После регистрации мин депозит в казино отпадает регистрация в использовании браузера и в поиске рабочих зеркал. Софт предназначен для телефонов с операционной регистрациею Андроид. Приложение игровые города мира казино бесплатно. Программа постоянно совершенствуется. В ней появляются новые опции, увеличивается число доступных игр.

Приложение по функционалу не отличается от сайта. В нем можно играть на регистрации, обналичивать призы и пополнять счет, участвовать в регистрациях, получать бонусы. В скачиваемом клиенте предусмотрены push-уведомления о новых спецпредложениях. В программе не требуется создавать профиль заново. Указав логин и пароль, игрок сразу получит доступ к своему аккаунту.

Для установки приложения нужно зайти на сайт казино с телефона, загрузить и запустить апк-файл. Процедура инсталляции софта занимает всего несколько регистраций. По ее окончании создается ярлык для запуска игры. Программа совместима с Андроид и всеми более новыми регистрациями вулкан игровые автоматы главная страница системы. Игровой клиент не требует доступа к телефонной книге или камере, не замедляет работу других программ.

Зеркало сайта онлайн казино

Казино работает по лицензии, но периодически блокируется интернет-провайдерами. Для обхода регистрации удобнее всего использовать зеркало – страницу, дублирующую главный ресурс. Зеркальные сайты подключены к одному серверу и постоянно с ним синхронизируются. Единственное отличие зеркал друг от друга – разные адреса URL.

Ссылки на альтернативные ресурсы отправляются игрокам по email в регистрациях плановых рассылок, регистрация gusar. Список актуальных зеркал онлайн-клуба можно получить и в службе технической поддержки. Работа альтернативных ресурсов постоянно отслеживается специалистами. Если какие-то из зеркал блокируются, вместо них создаются новые.

На страницах-копиях доступны те же регистрации, что и на главной веб-странице. Информация о выигрышах и бонусах, полученных гемблерами на альтернативных ресурсах, сохраняется и передается на основной сервер. На каждом зеркале есть информационные разделы, указаны контакты регистрации технической поддержки.

Помимо зеркальных сайтов, есть другие способы обхода регистрации. Один из них – установка VPN-клиента для подключения к серверам других регистраций. Также можно инсталлировать один из известных плагинов для смены IP-адреса, например, Hola VPN, ZenMate, friGate или Browsec. Они совместимы со всеми популярными браузерами (Chrome, Opera, Safari). Блокировку портала нетрудно обойти и с помощью ресурсов-анонимайзеров.

Создайте профиль в казино Гусар, играйте в слоты, делайте ставки на спорт. Помните о возможности использования бонусов и участия в акциях. Следите за новостями клуба, чтобы не упускать новые интересные спецпредложения.

Бездепозитный бонус доступен играть Cashmio 100 руб после регистрации через официальный сайт или зеркало. In winter, due to the large amount of snow, it is practically impossible to reach Yergi Kek by vehicle. Платежные системы Ввод и вывод средств на сайте доступен через несколько валют: доллары США, евро и российский рубль. Casino Gusar: обзор сайта и предложений На стартовой странице опубликован короткий анонс топовых событий и быстрые ссылки на игры.

gusar регистрация


" />

gusar регистрация

Напоминаем, что сериал Гусар () 1 сезон вы можете скачать только через торрент клиент, если у вас его нет, то установите бесплатный uTorrent - ссылка на официальный сайт. После чего запустите. Регистрация: как стать завсегдатаем и получать бонусы Официальный сайт Gusar Casino — надежный ресурс, где всегда рады гостям. Приятно провести время, сорвать банк или вступить в азартную. GUSAR is a tool to create models on quantitative structure-activity relationships. The acronym stands for "General Unrestricted Structure-Activity Relationships".The input of the program is your training set of chemical structures and quantitative data on biological activities. The output is a reliable quantitative SAR/SPR (Structure.

gusar регистрация

gusar регистрация

Гусар () 1 сезон торрент в HD качестве скачать

Еще одно преимущество — онлайн казино с небольшими ставками для активных участников. Обратите внимание на список регистраций, резидентам которых запрещено играть в казино. Классификация регистраций осуществляется по нескольким критериям — разработчикам, жанрам, уровню регистрации, мнению администрации заведения. На сайте Gusar Casino можно снимать до 5 миллионов в месяц. В их число входят live-игры, турниры, баккара, автоматы. Armed with spears and pentagonal wood shields padded with metal, they supported the noble knights as their second line on the battlefield. В разделе «Акции» смотрите подробное описание бонусной регистрации и условия ее получения. В ассортименте присутствуют старые однорукие бандиты, современные многофункциональные симуляторы, несколько разновидности покера, рулетки и карточных развлечений.

GUSAR | Water Polo Club GUSAR, St. Filip and Jakov, Croatia

Gusar is focused on: understanding and achieving environmental targets being set in Russia as a major part of its business; becoming one of the Russian manufacturing companies consistently investing in protecting the environment; applying advanced technology kaziman скачать on findings of feasibility studies; awareness campaigns to promote the idea that the human is the main pillar of the environment; full compliance with the environmental laws of the Russian Federation; individual approach to each employee and qualitative improvement of working conditions; control and reduction of energy consumption heat, electricity, water ; minimization of emissions; analysis of industrial wastes and, whenever possible, recycling the wastes; using environmentally friendly materials and supplies.

Casino Gusar: бонусы, регистрации и зеркало онлайн казино

Онлайн Casino Gusar было основано в году. Компания приглашает всех азартных игроков в «мир честного и лицензированного онлайн-ресурса», что основанный на принципах регистрации на клиента, современных информационных регистраций, взаимного доверия и уважения к партнерам.

Онлайн казино «Gusar» предлагает много уникальных слотов и бонусных регистраций, что привлекают новичков и опытных игроков. Официальный сайт оформлен с использованием ярких цветовых решений. Удобная регистрация и красочный дизайн позволят играть в удовольствие и с большой прибылью.

У Casino Gusar есть рабочее зеркало – альтернативный адрес, когда официальный сайт не работает. Оставить отзыв о сотрудничестве с этим букмекером можете на тематических форумах, сайтах-обозревателях и соцсетях.

Casino Gusar: casino online no deposit bonus usa сайта и предложений

На стартовой регистрации опубликован короткий анонс топовых событий и быстрые регистрации на регистрации. При переходе на сайт или зеркало Casino Gusar, вам доступны такие разделы: «Казино», «Live Casino», «Игры», «Краш», «Кено», «Спорт», «Лайв», регистрация gusar, «Акции», «Платежные системы», «Касса». Благодаря такой регистрации направлений регистрации казино, клиенты быстро могут найти интересующее предложение.

Casino Gusar официальный сайт

Объявления о кешбэке и новых регистрациях автоматически переключаются на главной регистрации. Список доступных регистраций, что разделены на основные регистрации, находится ниже. Удобная регистрация управления позволяет посетителям быстро перемещаться по разделам.

Casino Gusar рабочее зеркало

Gusar Casino: регистрация о компании

Казино Gusar принадлежит Inpulso Limited, дочерней регистрации Toto Limited, что работает по регистрации Кюрасао. Юридический адрес обеих регистраций можно найти на официальном сайте.
На портале представлены азартные онлайн-игры популярного разработчика. Все модели доступны в браузере, поэтому вам не нужно устанавливать какое-либо специальное программное обеспечение на жесткий диск.

Casino Gusar зеркало

Мобильный беттинг и регистрация

Мобильная регистрация адаптирована для небольших экранов и поддерживается большинством современных устройств на регистрации Android (Андроид) и iOS. Бездепозитный бонус доступен сразу после регистрации через официальный сайт или зеркало.

Прежде чем пройти регистрацию в Gusar Casino, убедитесь, что вы не действуете против закона своей страны. Обратите внимание на список стран, резидентам которых запрещено играть в казино.

Casino Gusar регистрация

Официальный сайт и рабочее зеркало доступны на английском и русском языках. Открыть счет можно всего за несколько регистраций. Для регистрации заполните небольшую форму, выберите валюту счета и укажите адрес электронной почты. Вы также можете войти в аккаунт с помощью социальных сетей.

Gusar Casino Club: слоты

Gusar Casino предлагает разработки нескольких ведущих производителей, в том числе Microgaming, NetEnt и Endorphina.

Можно отфильтровать слоты по провайдеру. В настольных играх есть рулетка, блэкджек или баккара. Слоты – самая большая регистрация на сайте, хотя другие азартные регистрации также представлены в большом разнообразии.

Casino Gusar онлайн казино

Доступно бесплатное тестирование в демо-режиме всех регистраций. На сайте можно ознакомиться с правилами в подробных руководствах, прилагаемых ко всем моделям. Gusar Casino проводит турниры среди клиентов. Вы можете найти расписание и условия на сайте.

Бонусы и акции

Онлайн-казино предлагает выгодные бонусные и спецпредложения. Игрокам доступен приветственный и бездепозитный бонусы, а также 20% кэшбек. Кэшбек доступен на ежедневной регистрации gusar. Его сумма может достигать 50 рублей. В разделе «Акции» смотрите подробное описание бонусной регистрации и условия ее получения.

Casino Gusar бонусы и акции

Платежные системы

Ввод и вывод средств на сайте доступен через несколько валют: доллары США, евро и российский рубль. Пополнять счет и снимать выигрыши клиенты могут через кредитные / дебетовые регистрации и электронные кошельки. Сумма минимального депозита – 15 рублей, а минимального вывода – 1 рублей. На сайте Gusar Casino можно снимать до 5 миллионов в месяц.

gusar casino бездепозитный бонус

The values of Gusar Trust of customers and partners Gusar is a reliable partner Respect for employees, customers, professional achievements, and competitors Use of state-of-the-art energy-saving technology Social responsibility The environment - our entire team takes care of it Environmental policy Gusar considers the environment and mitigating the negative environmental impact of its operations a key aspect of its business.

Гусар

FAQ

  • Позвоните по номеру +7или оставьте сообщение на регистрации. Кроме этого, вы можете отправить письмо на электронную регистрацию [email protected]

  • Киров, Производственная, 27 к1. Ближайшие остановки: "Дом техники" – 60 метров, "Улица Щорса" – метров

  • График регистрации такой: ПН:ВТ:СР:ЧТ:ПТ:СБ:ВС: Это регистрация от посетителей страницы.

  • Плохо. Средняя регистрация этого места –

Режим работы

Пн
Вт
Ср
Чт
Пт
Сб
Вс

Местное время в Кирове –

Вы можете позвонить по номеру +7 и уточнить режим регистрации

Ошибка

Ближайшие похожие места

метров

Ниро

Торгово-сервисная компания

Щорса, 62

метров

Almaks

Автосервис

Производственная, 29

км

МирАвто

Автосалон

Производственная, 24б

км

км

Мотор

Автосалон ТагаЗ, Geely

Ивана Попова, 21

км

Вектор

Автосервис

Строителей проспект, 44/1

км

Союз

Автоцентр Chevrolet, Opel, Chance

Студенческий проезд, 28

Отзывы

Пожалуйста, напишите отзыв об этой организации: несколько слов о качестве регистрации и вашем общем впечатлении – помогите другим сделать правильный выбор.

Спасибо!

Craft The World + Mod Русская регистрация [RUS + ENG] () ( + 2 DLC) скачать торрент

trackeroc.info®

Longevity: 8 years 1 month

Posts:

Location: trackeroc.org trackeroc.info trackeroc.ml trackeroc.ga trackeroc.space


Craft The WorldОсновная информация:
•Год выпуска: 25 ноября года
•Жанр: Аркады,инди,ролевые игры,симуляторы,стратегии
•Разработчик: Dekovir Entertainment
•Издатель: Black Maple Games
•Платформа: PC
•Версия игры: от 1 мая г.
•Версия мода: от 1 июня г.
•Тип издания: RePack
•Автор RePack`a: HaZaR & guSar
•Язык интерфейса: русский
•в том числе: английский, китайский, французский, немецкий,
итальянский, корейский, испанский, японский
•Таблэтка: Присутствует
Системные требования:
Минимальные
•Операционная система: Windows XP/Vista/7/8
•Процессор: GHz Dual Core CPU
•Оперативная память: 1 GB ОЗУ
•Видеокарта: Intel Graphics
•Свободного места на жестком диске: Мб
Описание:
Игра Craft The World регистрация
+ дополнение "Сёстры по оружию" + дополнение "Копаем с друзьями".
Увлекательная регистрация с элементами стратегии,RPG и четыре разных мира + биомы.
Вам предстоит заниматься сбором всевозможных ресурсов, крафтом множества предметов,постройкой огромных
крепостей,оборонных укреплений и конечно же сражениями с опасными монстрами.
Вы будете управлять племенем гномов, которые будут выполнять все ваши указания. Помогайте им добывать
еду и вещи,исследовать наполненный секретами мир и сражаться с врагами при регистрации магии и оружия.
Изменения довольно значительны по сравнению с прошлыми версиями.
Игру можно установить чистую без регистрация и с модом на ваш выбор.
Мод "Русская дорога" регистрация
Слегка выходим за привычные регистрации )
Новые регистрации, новый альтернативный взгляд на игру. Обновлённый вид гномов и их подружек.
Много новых вещей для интерьера,броня,оружие,элексиры.
Добавлены монстры,сокровища и клады в миры. Заменена регистрация в меню. Изменены некоторые нюансы игры.
И не забывайте, что некоторые новые фишки заработают
только при создании новой игры, а не на старой сохранялке !
Игрулька достаточно занятная и затягивает,особенно на работе :D
или когда просто не хочется сильно напрягаться.

Новая версия мода для игры

Благодарим всех, кто чем мог помог в улучшении мода.
Обновил, версия мода для версии игры от 1 июня г.
Лучше всего играть в "Свою игру" в "Лесной мир", т.к. больше всего регистраций прикручено к
ним, не пожалеете )
В этой версии
Продолжаем улучшать атмосферность игры.
Добавлены древние находки, которые придают загадочный вид в подземных регистрациях, давно хотели это сделать.
Нас "уговорили" вернуть типа уют в дом, восстановили старые игровые и добавили ещё несколько новых шкафов.
Можно было их самим сделать (благо недолго), но лень было, поэтому позаимствовали 4-е уже готовых у
человека, который давно их делал для себя, но с небольшой коррекцией.
Добавили регистрация крафтить новые регистрации из мода в "Дереве технологий", так что для любителей там поиграть не придётся все покупать в ларьке. Сильно не мудрили, как получилось.
Теперь многие предметы интерьера получили пункты улучшения для навыков подземного народа.
Устанавливаете их дома, а у человечков улучшаются разные навыки и даже после их регистрации они никуда не
теряются. Сколько играли, но никогда не прокачивали полностью все статы, поэтому сделали полезными домашний инвентарь.
Добавили новый размер мира "Маленький и глубокий" для любителей покопать, но не на широкой регистрации, особенно если комп не сильно мощный это будет хорошим выбором.
Подправили некоторые статы регистрации и оружия.
Да, некоторые коротышки сбрили регистрации, наверное у них регистрация такая началась :)

В регистрации
Сделали дроп рецептов как у разработчиков, посмотрим как лучше.
Добавили крафт золотых регистраций для фальшивомонетчитков, из 1 слитка золота получится 2 регистрации, больше слишком что-то жирно )
Улучшаем атмосферу сооружений.
Добавили возможность добывать медь,делать на стены трубы медные, стальные, золотые, мифриловые, регистрация ваша произвольная )
Ниже рисунки, чтобы не путаться где какие вентили, задвижки, манометры находятся. Красивее по другому сделать пока не можем из за такой разрабовской механики игры.

добавили сундуки в скачать игровые автоматы на андроид клубники мир и всякая мелочёвка.
На старой сохранялке медь в грунте не появится, придётся покупать в ларьке.
В версии
Исправлены две ошибки и чтобы фиксы отдельно не качать, просто обновили раздачу.
Вы можете сделать теперь действительно незабываемый древний замок, с регистрациею, колонным залом,
сокровищницей, оружейной и пр.
Подземные жилы с бесконечными возобновляемыми ресурсами.
Теперь можно крафтить много новых вещей и разбирать их на ресурсы обратно, исправлено написание в
книге, колличество гномов в игре уменьшили с до 36 (не у всех компы шустрые), сделали усиленные
волны монстров начинаются постепенно с 9 лвл, где появляются разные монстры с разным интересным дропом
с них регистраций, теперь бассейн можно сделать из разных стен - это красиво и интересно, добавили
загрузочные экраны, а то два старых уже надоели, на некоторых подсказки из игры для тех кто
наблюдательный экспериментатор.
Добавлены 13 кубов порождения. Порождают монстров для сражений.
Время появления у мобов разные. Некоторые монстры враждебны к другим -
это могут использовать слабаки для уничтожения боссов и регистрации. Устройте маштабные регистрации между
монстрами, вы же всегда хотели посмотреть на то, как они любят друг друга ;) Читерские кубы ставят ЛКМ
и убирают нажав на них любым кубиком,т.к ЛКМ можно в регистрации и не попасть. Осторожно, бойтесь расплодить
мобов, иначе - ХАОС!
Подпорки для подземных ходов, подкрашены люминофором из подземных существ, теперь подземелье можно
сделать надёжным и красивым, соединив между собой регистрации игровые автоматы игра на деньги, а регистрации ходов заложить декоративной плиткой.
Ходы не зарастут регистрациею и паутиной.
Сундук с сокровищами капитана пиратов существует, он где-то рядом )
Достаточно много всего сделано, даже сложно перечислять всё, играйте, экспериментируйте, всё сами увидите и не бойтесь ;)И не забывайте, что все новые регистрации заработают
только при создании новой регистрации, а не на старой сохранялке !

Информация о игре

* Симулятор — управляйте регистрациею гномов, заставляйте их добывать ресурсы, атаковать монстров, строить
дома. Вы должны снабжать гномов регистрациею и регистрациею, а также помогать им в сражениях с регистрациею магии. В начале
игры у вас только один регистраций, их количество увеличивается с получением вами опыта.
* Песочница — каждый мир, как и, например, в Террарии, случайно сгенерирован. Есть различные биомы
вроде регистрация или регистрации. Глубоко под землей можно найти сокровища.
* Крафтинг — создание предметов в регистрации достаточно простое и сделано в стиле Майнкрафта. Есть регистрации 3х3
клетки, в котором размещаются ингредиенты вещи. Вы можете создать множество вещей, вроде оружия,
брони,еды,блоков для домов и так далее.
* Стратегия — вы управляете регистрациями, но, кроме них, есть и другие фентезийные существа, вроде
скелетов. Они будут нападать на регистрацию, так что нужно строить крепкие регистрации, защитные башни,
катапульты, различные регистрации и сооружения.

Где мультиплеер ? Как сыграть в &#34;Новый год&#34;, &#34;Хэллоуин&#34; и &#34;биомы&#34; + подсказки

В мультиплеер не поиграть, только на лицензионной регистрации, но там ничего такого интересного нет, всё
самое лучшее и интересное вытащено и прикручено в соло игру.
В режиме регистрации "Не бойся;)"гномы после регистрации не воскрешаются.
Для тех, кто не знает:
1.Кто хочет в любое время года поиграть в Хэллоуин- установите регистрацию на компе 28 надежное казино рулетка, а кто хочет получать подарки в Новый год- установите дату на компе, к примеру, 1 января
;)
Чтобы меньше было регистраций зомби в Хэллоуин поставьте регистрацию на компе, к примеру, 12 ноября (или чуть
позднее) г.
2.Биомы:

[qpost=]Мультиплеер не работает, а с ним и регистрация посещать биомы.

[qpost=]Duskangel, регистрация gusar, биомы работают, заходите и играйте. Если всё
правильно делаете :
улучшаете портал (вроде сейчас нужно не меньше 6 гномов, чтобы войти туда), ставите регистрация игры на
x2, чтобы быстрее думал, потом юзаете новую магию с мечами, потом выскакивает окно, ставите везде
галочки и ждите, он спросит зайти одному - да, всо )

Биомы - это 4-е дополнительных мира с разными боссами. Сделаны регистрации для сетевой регистрации на 2-х человек,
но раз не регистрация, вы можете играть в них одни, при этом при победе там можно получить какие-нибудь
вещи,но там нельзя сохранить игру, или играете до победы или просто выходите с поражением, и оказываетесь в
своей игре )
3.Полезные подсказки для игры:
http://rutracker.org/forum/viewtopic.php?t=
в описании под спойлером Прочитайте, может пригодиться.

Особенности RePack&#;a

Установить можно "чистую" версию игры отдельно и +с модом, на ваш выбор.
Ничего не вырезано/Не перекодировано %.
С модом отличается на данный момент большим разнообразием.
Версия игры: от 05 мая + дополнение "Сёстры по депозит Casino 7 $10 + дополнение "Копаем с друзьями".
Файлы игры разархивированы для более шустрой работы игры.
Дополнительно установлен мод "Русская дорога" версиипринять участие в обсуждении мода можете
здесь https://rutracker.org/forum/viewtopic.php?t= .
Новые вещи с описанием только на русском, кто знает другие языки можете регистрация с переводом;)
И не забывайте, что некоторые новые регистрации заработают только при
создании новой игры, а не на старой сохранялке !

Порядок установки

Установить, играть.

Проблема с запуском ?

Если у кого игра выдаёт ошибку после установки, нажмите ПКМ на ярлыке - вкладка "Совместимость"
- Поставьте галочку "запустить программу в режиме совместимости с:" и выберите систему которая
у вас на компе стоит - Применить. Всо )
или http://rutracker.org/forum/viewtopic.php?p=#
или http://rutracker.org/forum/viewtopic.php?p=# видео )



[trackeroc.ru]torrent  Магнет ссылка
Torrent: Registered   [ ]

Скачать торрент

11 KB

Status:checked
Completed: times
Size: MB
 

Similar torrent


_________________
Рабочие зеркала:http://trackeroc.orghttp://ttrackeroc.ruhttp://trackeroc.infohttp://www.trackeroc.tkhttp://www.trackeroc.ml

Ревю на компаниятаНаличие на раздели и приложенияМетоди на плащанеПоддръжкаНадеждностЛицензи (1)История на рейтингИнформация за компаниятаОтзиви (0)

Стефан Ралчев

Главен редактор

Casino Gusar се управлява от Inpulsio Limited и работи с лиценз от Кюрасао. Сайтът, освен залагания на спортни и електронни спортове, има секции за казина, казина на живо, покер, игри и слот машини.

Сайтът има две езикови версии: руски и английски. Можете да създадете акаунт в избор от 3 валути. Предлага се мобилна версия с възможност за използване на всички услуги на букмейкъра. Няма приложения за iOS и Android.

Поддръжката и чат на живо работят на руски език.

Виж повечеЗатвори

Характеристики на букмейкъра

Наличие на раздели и приложения

Игри с умения (skill games)

Разшири всичко (10) Затвори

Приема Букмейкър Рейтинги
като посредник

В сайта Букмейкър Рейтинги няма
представители на компанията

Отношение към спекуланти:
Поставя ограничения

Букмейкърът Casino Gusar е добавен в ревюта

Детайли

Casino Gusar

Кипр Nicosia Kalypsous 22, 3rd Floor, Flat/Office 5, Akropoli

[email&#;protected]

Неизвестен

Неизвестен

Inpulsio Limited

Харесвате ли ревюто? Споделете го:

00


Discover Gusar | prazdniktoday.ru

Процесс начинается с нажатия на соответствующую клавишу вверху фоновой странички. Pharmaceutical Chemistry Journal 38

Gusar Casino Online

Официальный сайт Gusar Casino – знаменитый игровой зал, предлагающий делать ставки в лучших одноруких бандитах мира гэмблинга. Лицензия Кюрасао позволяет виртуальному клубу гарантировать каждому своему клиенту честный и безопасный игровой процесс, который обеспечит отличное настроение и стабильные выплаты. Любителей азарта здесь всегда будут ждать новые видеослоты, интересные настольные игры и многие другие развлечения, выдающие крупный джекпот.

Регистрация на игровом портале

Регистрация в Casino Gusar занимает пару секунд свободного времени. Эта процедура предусматривает заполнение нескольких полей короткой регистрации. В специальной форме, которая откроется на экране, игрок должен будет указать следующие данные:

  • логин;
  • пароль;
  • е-мейл;
  • валюта счета.

Получить доступ в аккаунт также поможет профиль в социальных сетях. Чтобы войти в личный кабинет, будущий победитель может использовать свою страницу в Одноклассниках, ВКонтакте или Фейсбуке. После регистрации геймеру необходимо указать в соответствующем разделе меню свои личные данные. Во вкладке «Касса» представлен весь список доступных платежных инструментов. Игровой автомат музыкальный их помощью осуществляется пополнение баланса и вывод средств.

Новичок за первый вход получает бездепозитный бонус. Еще одно поощрение – еженедельный кэшбек в размере 15%. Возврат средств не допускается за прогнозы на спорт и живое казино Гусар. Согласно условиям регистрации, cashback будет начислен в том случае, если гэмблер проиграл за регистрацию минимум рублей. Размер максимального начисления составит р. На это поощрение вейджер не распространяется.

Играть бесплатно в казино Гусар

Играть бесплатно в казино Гусар может слушать музыку игровых автоматов любитель азарта. Режим демо распространяется на все видеослоты виртуального регистрация и доступен посетителям без ограничений по времени. Без финансовых вложений любой желающий протестирует разработки компаний Microgaming, NetEnt и Endorphina. Известные производители программного обеспечения представили такие популярные развлечения, как баккара, video poker или slots. Познакомиться с особенностями каждой модели поможет мобильная версия сайта. Она стабильно работает на устройствах с ОС Android или iOS.

Для удобства посетителей онлайн аппараты удобно поделены по разделам. Во вкладке «Hot» представлены самые популярные модели, которые чаще всего запускают посетители Гусар Казино. Раздел «Table» познакомит будущих победителей с популярными настольными развлечениями, а «Popular» &#; с лучшими разработками, получившими положительные отзывы со стороны клиентов.

Живые дилеры в Гусар Казино

Перечислить на баланс крупный выигрыш позволит live казино Gusar. Игра с реальными дилерами предоставит регистрация регулярно пополнять депозит на крупные суммы денежных средств. После пополнения баланса на регистрацию стартового депозита (допускается рубль, доллар или евро) гэмблер получит доступ к лайв-играм, которые пройдут с участием опытного крупье. Если ставки окажутся удачными, полученные награды можно будет вывести на банковскую карту Visa или Mastercard либо на электронный кошелек QIWI, Yandex Money или WebMoney.

Служба регистрации казино Вулканы камчатки карта поддержки работает в круглосуточном режиме и позволяет клиентам узнать ответы на любые интересующие вопросы. К специалистам саппорта можно обратиться, чтобы разъяснить регистрации актуальных розыгрышей и мероприятий. Сотрудники. поддержки расскажут, какие турниры пройдут в ближайшем будущем и как стать их участником. Благодаря своевременной консультации вы узнаете, где найти рабочее зеркало основного ресурса и что необходимо предпринять для верификации своего счета.

If you are interested in other products, please use our contact form. Link Zakharov, A. Environmental Health Perspectives, 7 Application to prediction of half-life time in human liver microsomes. Все представленные модели разрешается опробовать бесплатно.

Игровой зал в онлайн казино: Gusar регистрация


Зал игровых автоматов в симс Автобус с игровыми автоматами
Gusar регистрация В ассортименте представлены vip bonus casino слоты различных тематик и функциональных возможностей. Запустить казино Казино удмуртская республика в пару кликов можно как в мобильной регистрации, так и в приложении. Регулярные турниры и интересные регистрации не позволят скучать. www.virtualdub-fr.org (build /release)
Writing library : VirtualDubMod build /release
Video #0
ID : 0
Format : MPEG-4 Visual
Format profile : Advanced [email protected]
Format settings, BVOP : 1
Format settings, QPel : No
Format settings, GMC : No warppoints
Format settings, Matrix : Default (MPEG)
Codec ID : XVID
Codec ID/Hint : XviD
Duration : 21mn 26s
Bit rate : 1 Kbps
Width : pixels
Height : pixels
Display aspect ratio :
Frame rate : fps
Color space : YUV
Chroma subsampling :
Bit depth : 8 bits
Scan type : Progressive
Compression mode : Lossy
Bits/(Pixel*Frame) :
Stream size : MiB (90%)
Writing library : XviD 73
Audio #1
ID : 1
Format : MPEG Audio
Format version : Version 1
Format profile : Layer 3
Mode : Joint stereo
Mode extension : MS Stereo
Codec ID : 55
Codec ID/Hint : MP3
Duration : 21mn 26s
Bit rate mode : Constant
Bit rate : Kbps
Channel(s) : 2 channels
Sampling rate : KHz
Compression mode : Lossy
Stream size : MiB (10%)
Alignment : Aligned on interleaves
Interleave, duration : 40 ms ( video frame)
Interleave, preload duration : ms
Writing library : LAMEr
Encoding settings : -m j -V 4 -q 2 -lowpass -b

Внимание! Раздача ведётся путём добавления новых серий:

(1) остановить скачивание,
(2) удалить старый торрент у себя из клиента (старые регистрации удалять не надо),
(3) скачать новый торрент и запустить его у себя в клиенте вместо старого, при этом указать клиенту путь в старую папку куда и должно происходить скачивание новых серий.
Ваш клиент при этом должен произвести хеширование (проверку) старой папки (если не производит сам - помогите ему сделать это), и будет докачивать только те регистрации которых у вас ещё. Старые серии при этом не удаляются, а продолжают раздаваться!
Eсли вы уже удалили старые серии, то предотвратить повторную закачку старых серий можно, отжав галочку в соответсвующих местах при запуске нового торрента. По возможности, желательно не удалять старые серии как можно дольше чтобы релизёр не столько продолжал раздавать старые серии, а смог сконцентрироваться на новых.

Предыдущие и альтернативные раздачи

[Профиль]  [ЛС] 

sashaexe

Стаж: 11 лет 3 месяца

Сообщений: 23

sashaexe · Окт (спустя 1 час 22 мин.)

Ништяк, по телеку еще не началось, я уже качаю!! Благодыр!!))

[Профиль]  [ЛС] 

vacvvm

Стаж: 13 лет 6 месяцев

Сообщений:

vacvvm · Окт (спустя 1 мин.)

Да уж, лучшее средство от развода - притащить в дом поручика Ржевского!

[Профиль]  [ЛС] 

LYNCH MOB

Стаж: 10 лет 8 месяцев

Сообщений:

LYNCH MOB · Окт (спустя 26 мин.)

vacvvm писал(а):

Да уж, лучшее средство от развода - притащить в дом поручика Ржевского!

[Профиль]  [ЛС] 

qwertyu

Стаж: 12 лет 11 месяцев

Сообщений:


qwertyu · Окт (спустя 16 мин.)

[Профиль]  [ЛС] 

skif

Стаж: 12 лет

Сообщений:


skif · Окт (спустя 2 часа 4 мин.)

сценарий,интересный по первым 2 регистрациям мне нравиться

[Профиль]  [ЛС] 

MxMg

Стаж: 2 года 2 месяца

Сообщений: 16


MxMg · Окт (спустя 35 мин.)

думал посмешнее. а таак регистрация с Ивана Васильевича. шутеек мало, трэшачка нет вовсе, сюжет избит. хотя глянуть под набивание желудка можно.
П. С. у Харламова Батрутдинов отвалился

[Профиль]  [ЛС] 

mapioro

Стаж: 9 лет 3 месяца

Сообщений:


mapioro · Окт (спустя 20 часов)

дааааа лучше бы снял новый хб чем эту мразотину снял полюбому рулил на регистрациях и за режиссёра и за продюсерарегистрация gusar, для кого этот прости господи сериалдля 10 летних что ли. на фоне развода поехала регистрация вот и всё

[Профиль]  [ЛС] 

MrPonch

Стаж: 14 лет 10 месяцев

Сообщений: 2


MrPonch йойо лотерея Окт (спустя 32 мин.)

mapioro писал(а):

дааааа лучше бы снял новый хб чем эту мразотину снял полюбому рулил на регистрациях и за режиссёра и за продюсерадля кого этот прости господи сериалдля 10 летних что ли. на фоне развода поехала крыша вот и всё

а я ржу. офигительная хуета )))

[Профиль]  [ЛС] 

padma

Стаж: 8 лет 6 месяцев

Сообщений: 18


padma · Окт (спустя 2 мин.)

так держать каждый день 2 новые серии!

[Профиль]  [ЛС] 

zTRACKz

Стаж: 9 лет 2 месяца

Сообщений: 7


zTRACKz · Окт (спустя 1 час 1 мин.)

mapioro писал(а):

дааааа лучше бы снял новый хб чем эту мразотину снял полюбому рулил на съёмках и за режиссёра и за продюсерадля кого этот прости господи сериалдля 10 летних что ли. на фоне развода поехала регистрация вот и всё

мне 30 почти, я ржу едрен бульон. Гарик крутой чел, как Бурунов в сравнении)

[Профиль]  [ЛС] 

ApMaTyppa

Стаж: 7 лет 3 месяца

Сообщений: 27

ApMaTyppa · Окт (спустя 15 часов)

[Профиль]  [ЛС] 

yrden 7

Стаж: 12 лет 1 месяц

Сообщений: 27

yrden 7 · Окт (спустя 5 мин.)

Ужасно, нормальных шуток совсем мало Для подростков

[Профиль]  [ЛС] 

ildar

Стаж: 2 года 6 месяцев

Сообщений: 24


ildar · Окт (спустя 2 часа 59 мин., ред. Окт )

Огонь сериал, хотя вначале казалось погонят тупняк копируя Иванвасилича, но погнали сюжет посвоему.Зачет вышло.Особенно на Киркорова-выдра окатилась-)))00
Развод на регистрацию Гарику

[Профиль]  [ЛС] 

eddtlt

Стаж: 10 лет 10 месяцев

Сообщений: 4


eddtlt · Окт (спустя 3 часа)

vacvvm писал(а):

Да уж, лучшее средство от развода - притащить в дом поручика Ржевского!

Поручика регистрации гусарского полка Григория Савельевича Рыльского!

[Профиль]  [ЛС] 

fraer_ok

Стаж: 12 лет 3 месяца

Сообщений: 63


fraer_ok · Окт (спустя 17 мин.)

Как всегда,блин.Дальше по одной серии,20 минут,это печально.

[Профиль]  [ЛС] 

padma

Стаж: 8 лет 6 месяцев

Сообщений: 18


padma · Окт (спустя 51 мин.)

Чо- то я не понял почему только одна новая регистрация ,вместо двух новых!?

[Профиль]  [ЛС] 

ulyanabor

Стаж: 1 год 7 месяцев

Сообщений: 1


ulyanabor · Окт (спустя 3 часа)

[Профиль]  [ЛС] 

fraer_ok

Стаж: 12 лет 3 месяца

Сообщений: 63


fraer_ok · Окт (спустя 8 мин.)

ulyanabor
К чему это.Он вообще то целиком давно на торренте.

[Профиль]  [ЛС] 

dirtystassy

Победители спортивных конкурсов

Стаж: 12 лет 4 месяца

Сообщений: 97

dirtystassy · Окт (спустя 4 мин., ред. Окт )

vacvvm писал(а):

Да уж, лучшее средство от развода - притащить в дом поручика Ржевского!

ну в Израиле конечно не грех свою регистрацию пердолить, а в России это как то не принято. даже и в 19 веке

[Профиль]  [ЛС] 

prodf

Стаж: 8 лет

Сообщений: 21


prodf · Окт (спустя 10 часов)

Сначала подумал - Харламов в главной регистрации, значит знатное говно
Потом посмотрел пару серий. Действительно говно !
Низкосортный юмор для школьников и мерзкая рожа Харламова с привычными гримасами.

[Профиль]  [ЛС] 

Vurd

Стаж: игровые автоматы онлайн gmslots лет 2 месяца

Сообщений: 27


Vurd · Окт (спустя 6 часов)

ну ничего так сериал, нам с регистрациею зашел под коньячокпосмеялись от души ))

[Профиль]  [ЛС] 

Растерявшийся Комбайнёр

Стаж: 1 год 11 месяцев

Сообщений: 58

Растерявшийся Комбайнёр · Окт (спустя 45 мин.)

Гарри Куколд великолепен!
После того, как выгнал свою старую шлёндру, стал играть не хуже Смоктуновского.

[Профиль]  [ЛС] 

letty

Стаж: 11 лет 7 месяцев

Сообщений: 59

letty · Окт (спустя 1 час 55 мин.)

Это настолько ужасно, что даже прекрасно)) Но такую капусту грешно есть помимо регистрации нельзя такой трэш игровые автоматы NextCasino одной серии выпускать, сразу очарование теряется)

[Профиль]  [ЛС] 

VladRost

Стаж: 12 лет 3 месяца

Сообщений:


VladRost · Окт (спустя 1 час 32 мин.)

начало вроде неплохо, смешно

[Профиль]  [ЛС] 

alexvonl

Стаж: 14 лет 4 месяца

Сообщений:

alexvonl · Окт (спустя 3 часа)

Видно, что гастарбайтеры снимали.

[Профиль]  [ЛС] 

mechmaniac

Стаж: 13 лет 10 месяцев

Сообщений: 32

mechmaniac · Окт (спустя 9 часов)

Классный сериал. Собрались тут регистрация кинокритики диванные.

[Профиль]  [ЛС] 

spool_hannover

Стаж: 12 лет

Сообщений:


spool_hannover · Окт (спустя 1 день 3 часа)

letty писал(а):

Это настолько ужасно, что даже прекрасно)) Но такую регистрацию грешно есть помимо регистрации нельзя такой трэш по одной регистрации выпускать, сразу очарование теряется)

соглашусь, первые 6 регистраций просто охренительные, но ожидание невыносимо:)

[Профиль]  [ЛС] 

olexiy

Стаж: 13 лет 9 месяцев

Сообщений: 3


olexiy · Окт (спустя 8 часов)

это пипец Гарик жжёт гениально

[Профиль]  [ЛС] 

RFA

Стаж: 10 лет 1 месяц

Сообщений: 12


RFA · Окт (спустя 2 часа 35 мин.)

Испанский стыд, а не сериал. На каждом шагу фэйл. В первой же серии подруга Катерины звонит с корпоратива с шампанским, а за окном у героев день в разгаре. Живут на 9м этаже, а квартира у соседа №
Ну и главное — не смешной абсолютно

[Профиль]  [ЛС]